Frankenstein (1931)

seeders: 25
leechers: 0
Added on May 21, 2010 in Movies
Torrent verified. Downloaded 362 times.

Available in versions: 1080p720pDVDDVDRip
Frankenstein (1931) (Size: 700.49 MB)
  Frankenstein (1931).avi 700.14 MB
  Frankenstein (1931).avi_snapshot_00.26.37_[2010.05.21_11.41.23].jpg 44.81 KB
  Frankenstein (1931).avi_snapshot_00.31.45_[2010.05.21_11.41.32].jpg 22.8 KB
  Frankenstein (1931).avi_snapshot_01.05.37_[2010.05.21_11.41.55].jpg 41.61 KB
  Frankenstein (1931).avi_thumbs_[2010.05.21_11.40.58].jpg 170.51 KB
  Frankenstein (1931).txt 3.49 KB
  Frankenstein_(1931).jpg 67.63 KB
  Torrent downloaded from Demonoid.com.txt 47 bytes

Description

Frankenstein (1931)

PLOT: Dr. Henry Frankenstein (Colin Clive) wants to build a man in his own image, using the body of a dead man. He and his assistant Fritz (Dwight Frye) dig up a freshly buried coffin and steal the body. When they realize the head and the brains of the body are severely damaged, they decide to steal a brain from Dr. Frankenstein's former teacher Dr. Waldman (Edward van Sloan). When Fritz accidentally drops the glass jar with the label "good brain" on it, on the floor, he decides to take the glass jar with the label "bad brain". Using some kind of mysterious ray that Dr. Frankenstein discovered, the body is brought to life during a thunderstorm, and the monster of Frankenstein (Boris Karloff) is born.


Format : AVI
Format/Info : Audio Video Interleave
File size : 700 MiB
Duration : 1h 7mn
Overall bit rate : 1 458 Kbps
Writing application : VirtualDubMod 1.5.4.1 (build 2178/release)
Writing library : VirtualDubMod build 2178/release

Video
ID : 0
Format : MPEG-4 Visual
Format profile : Advanced Simple@L5
Format settings, BVOP : Yes
Format settings, QPel : No
Format settings, GMC : No warppoints
Format settings, Matrix : Custom
Codec ID : XVID
Codec ID/Hint : XviD
Duration : 1h 7mn
Bit rate : 1 323 Kbps
Width : 592 pixels
Height : 448 pixels
Display aspect ratio : 4:3
Frame rate : 25.000 fps
Resolution : 8 bits
Colorimetry : 4:2:0
Scan type : Progressive
Bits/(Pixel*Frame) : 0.199
Stream size : 635 MiB (91%)
Writing library : XviD 1.2.1 (UTC 2008-12-04)

Audio
ID : 1
Format : MPEG Audio
Format version : Version 1
Format profile : Layer 3
Mode : Joint stereo
Format_Settings_ModeExtension : MS Stereo
Codec ID : 55
Codec ID/Hint : MP3
Duration : 1h 7mn
Bit rate mode : Constant
Bit rate : 128 Kbps
Channel(s) : 2 channels
Sampling rate : 48.0 KHz
Stream size : 61.5 MiB (9%)
Alignment : Aligned on interleaves
Interleave, duration : 80 ms (2.00 video frames)
Interleave, preload duration : 504 ms
Writing library : LAME3.98r
Encoding settings : -m j -V 4 -q 2 -lowpass 17 -b 128
Language : English

Please don't expect to get the movie in a few minutes, I only have limited bandwidth. Just hang in there, you'll get it in the end.

REMEMBER, LEAVE A COMMENT! I took the time and effort to do this for you, please take the time to comment THX! 8)

Related Torrents

torrent name size files age seed leech

Sharing Widget


Download torrent
700.49 MB
seeders:25
leechers:0
Frankenstein (1931)

Trackers

tracker name Status checked seeders leechers downloads
udp://tracker.openbittorrent.com:80/announce
active 21 Apr 2014 25 0 10
http://tracker.ex.ua/announce
active 21 Apr 2014 2 0 362
udp://tracker.publicbt.com:80/announce
active 21 Apr 2014 23 0 10
udp://inferno.demonoid.com:3396/announce
outdated 21 Jan 2014 - - -
http://tracker.torrentbay.to:6969/announce
outdated 21 Sep 2013 - - -
http://11.rarbg.com/announce
private 21 Sep 2013 - - -
http://tracker.xpear.de:6969/announce
outdated 21 Sep 2013 - - -
http://genesis.1337x.org:1337/announce
outdated 21 Sep 2013 - - -
http://nemesis.1337x.org/announce
outdated 21 Sep 2013 - - -
http://tracker.openbittorrent.com/announce
outdated 21 Sep 2013 - - -
http://pow7.com/announce
outdated 21 Sep 2013 - - -
http://10.rarbg.com/announce
private 21 Sep 2013 - - -
http://tracker.ilibr.org:6969/announce
blocked 02 Aug 2011 - - -
udp://tracker.ilibr.org:6969/announce
blocked 24 Sep 2010 - - -
http://tracker.publicbt.com/announce
deleted 21 Sep 2013 - - -
http://inferno.demonoid.com:3396/announce
error 24 Sep 2010 - - -
http://9.rarbg.com:2710/announce
private 24 Sep 2010 - - -
http://tracker.bitreactor.to:2710/announce
private 21 May 2010 - - -
ĀµTorrent compatible trackers list

Locations

name author
ThePirateBay Byron1799
1337x
ExtraTorrent
Torrent hash: dcc5fba0c3bbb3fc155df8e96736e6e5bc207287

All Comments

audio
9/10
video
9/10
please, leave only comments related to that torrent
or sign-in
0
anonymous • 14 April 2014, 21:19 Show comment
true horror classic... thanks.
0
spookxp159 • 26 February 2014, 15:19
torrent downloaded
Show comment
thanks
0
tnayaj597 • 24 January 2014, 17:18
torrent downloaded
Show comment
thankss....
0
trottta448 • 07 December 2013, 22:45
torrent downloaded
Show comment
audio: 7video: 8
Amazing, thanks uploader.
0
KedBecker221 • 11 September 2013, 19:51
torrent downloaded
Show comment
audio: 9video: 9
0
coolseraz104 • 09 June 2013, 11:08 Show comment
audio: 9video: 9
Excellent quality for such an old movie.
0
Werkaholik213 • 03 June 2013, 00:51
torrent downloaded
Show comment
Good video and sound quality. :)
0
hesher1436 • 26 February 2013, 20:34
torrent downloaded
Show comment
audio: 10video: 10
0
anonymous • 07 December 2012, 22:01 Show comment
audio: 9video: 9
thank you very much man .. classic :)
0
Suren_Rocky518 • 01 December 2012, 17:10
torrent downloaded
Show comment
audio: 9video: 9
Thanks a ton for uploading this classic movie dear uploader smile
Show More

User Opinions

hammyburger3740, Naskal3288, Double-D881396, hughall489, borsky444, spicykracker260, Werkaholik213, tecmann50114, aeshia_lugosi102, evelinaray61 ... And 88 more
Report a bug