Grand Masti 2 2013 Hindi Movies HDSCamRip X264 New Source +Sample ~ ☻rDX☻

seeders: 16
leechers: 2
Added on Sep 14, 2013 by teamrdx4584 in Movies > Bollywood
Torrent verified. Downloaded 10 times.

Grand Masti 2 2013 Hindi Movies HDSCamRip X264 New Source +Sample ~ ☻rDX☻ (Size: 709.97 MB)
  Grand Masti 2 2013 Hindi Movies HDSCamRip X264 New Source ~ ☻rDX☻.mkv 698.89 MB
  Sample ~ Grand Masti 2 2013 Hindi Movies HDSCamRip X264 New Source ~ ☻rDX☻.mkv 11.08 MB

Description

image

Grand Masti 2 2013 Hindi Movies HDSCamRip X264 New Source +Sample ~ ☻rDX☻

Please check SCREEN SHOTS first :

http://myimghosting.serveftp.com/13/GrandMasti.html

http://myimghost.cwahi.net/GrandMasti.html


All rDX torrents are Seeding From the 1Gbps Seedbox 24X7

image

image

image

Format : Matroska
Format version : Version 2
File size : 699 MiB
Duration : 2h 5mn
Overall bit rate mode : Variable
Overall bit rate : 776 Kbps
Encoded date : UTC 2013-09-13 11:19:53
Writing application : TMPGEnc Video Mastering Works 5 Version. 5.0.6.38
Writing library : TMPGEnc Video Mastering Works 5 Version. 5.0.6.38

Video
ID : 2
Format : AVC
Format/Info : Advanced Video Codec
Format profile : High@L3.0
Format settings, CABAC : Yes
Format settings, ReFrames : 3 frames
Codec ID : V_MPEG4/ISO/AVC
Duration : 2h 5mn
Bit rate mode : Variable
Bit rate : 390 Kbps
Maximum bit rate : 8 000 Kbps
Width : 352 pixels
Height : 200 pixels
Display aspect ratio : 1.920
Frame rate mode : Constant
Frame rate : 25.000 fps
Standard : NTSC
Color space : YUV
Chroma subsampling : 4:2:0
Bit depth : 8 bits
Scan type : Progressive
Bits/(Pixel*Frame) : 0.222
Stream size : 339 MiB (49%)
Writing library : x264 core 114
Default : Yes
Forced : No
Color primaries : BT.601 PAL
Transfer characteristics : BT.470 System B, BT.470 System G
Matrix coefficients : BT.601

Audio
ID : 1
Format : AC-3
Format/Info : Audio Coding 3
Mode extension : CM (complete main)
Format settings, Endianness : Big
Codec ID : A_AC3
Duration : 2h 5mn
Bit rate mode : Constant
Bit rate : 384 Kbps
Channel(s) : 6 channels
Channel positions : Front: L C R, Side: L R, LFE
Sampling rate : 48.0 KHz
Bit depth : 16 bits
Compression mode : Lossy
Stream size : 346 MiB (49%)
Default : Yes
Forced : No

Related Torrents

torrent name size files age seed leech

Sharing Widget


Download torrent
709.97 MB
seeders:16
leechers:2
Grand Masti 2 2013 Hindi Movies HDSCamRip X264 New Source +Sample ~ ☻rDX☻

Trackers

tracker name Status checked seeders leechers downloads
udp://tracker.istole.it:80/announce
active 25 Mar 2014 16 2 10
udp://tracker.openbittorrent.com:80/announce
active 25 Mar 2014 13 1 10
udp://tracker.publicbt.com:80/announce
active 25 Mar 2014 11 1 10
udp://fr33domtracker.h33t.com:3310/announce
deleted 26 Sep 2013 - - -
µTorrent compatible trackers list

Locations

name author
KickassTorrents teamrdx
Torrent hash: 9FA905C2A128D435A9A0214EECC566D4155A6523

All Comments

audio
5/10
video
5/10
please, leave only comments related to that torrent
or sign-in
0
anonymous • 05 February 2014, 18:20 Show comment
bikwas movie is sy k0i 0r hai he na
0
lightningbolt842 • 05 February 2014, 17:23
torrent downloaded
Show comment
audio: 6video: 6
0
anonymous • 12 November 2013, 13:00 Show comment
:p wtf
0
tanseershah1901 • 11 October 2013, 17:22
torrent downloaded
Show comment
audio: 3video: 3
WTF
0
Deap698 • 11 October 2013, 15:07
torrent downloaded
Show comment
audio: 4video: 5
0
anonymous • 02 October 2013, 17:30 Show comment
plz upload horror story in hindi 2013 movie
0
anonymous • 29 September 2013, 17:59 Show comment
audio: 10video: 10
awfull from top
0
paulanku90801 • 28 September 2013, 07:26
torrent downloaded
Show comment
audio: 6video: 7
Thanks....lol
Show More

User Opinions

Dzoni893936, aceg153366, ramacole2743, amiaham1923, kaushiq1750, omr4801312, Uzzzi1295, lightningbolt842, ShaunJ233, Rupeshgarg52 ... And 140 more
tanseershah1901, Sahir94919658, bharatvellanki657, susheel7425382, Aditya1994346, Ahmed_Bin_Essa280, vyomb138, siva2728129, tasawar.joyia102, murtaza_rangwala96 ... And 48 more
Report a bug